VA – Ibiza 2008 The Islands Essentials


11/09/2008 - Por Mercy - Musica

Lo esencial de la isla de Ibiza 2008, los grandes éxitos del 2008 combinando Trance, House y Club que hacen que la gente se ponga a bailar. Un album de 2 discos que no pueden perderse!

Contenido: Album completo 2CDs + Cover
Formato: rar (descomprimir Winrar)
Peso: 219.6 MB
Descarga:
http://rapidshare.com/files/144445328/esencial-isla-espaNola.part1.rar
http://rapidshare.com/files/144445110/esencial-isla-espaNola.part2.rar
http://rapidshare.com/files/144444323/esencial-isla-espaNola.part3.rar

Tracklist:
————-
CD1
TRACK 01 AUDIO
TITLE “wasted”
PERFORMER “andy duguid feat. leah”
INDEX 01 00:00:00
TRACK 02 AUDIO
TITLE “6 a.m. (kyau and albert remix)”
PERFORMER “cressida”
INDEX 01 07:49:22
TRACK 03 AUDIO

TITLE “for you (the blizzard remix)”
PERFORMER “envio”
INDEX 01 13:14:18
TRACK 04 AUDIO
TITLE “the storm (inpetto remix edit)”
PERFORMER “jerry ropero feat. cozi”
INDEX 01 21:21:47
TRACK 05 AUDIO
TITLE “la guitarra”
PERFORMER “orjan nilsen”
INDEX 01 26:53:70
TRACK 06 AUDIO
TITLE “take the plunge (original mix)”
PERFORMER “vernal”
INDEX 01 34:31:24
TRACK 07 AUDIO
TITLE “let it go (vocal mix)”
PERFORMER “emilio fernandez”
INDEX 01 40:07:59
TRACK 08 AUDIO
TITLE “whiplash”
PERFORMER “russell g.”
INDEX 01 46:31:59
TRACK 09 AUDIO
TITLE “1st strike”
PERFORMER “josh gallahan”

INDEX 01 52:55:59
TRACK 10 AUDIO
TITLE “mulberry harbour”
PERFORMER “trebbiano”
INDEX 01 59:49:24
TRACK 11 AUDIO
TITLE “dont wake me up (san antonio harbour mix)”
PERFORMER “dj shah feat. inger hansen”
INDEX 01 65:58:41

CD2
1. Jose Amnesia Feat. Jennifer Rene – Invincible (Sied Van Riel Remix) (9:46)
2. Global Experience – Koengen (DJ Shahs Secundo Version) (7:23)
3. The Doppler Effect – Beauty Hides in the Deep (the Blizzard Remix) (9:14)
4. Wippenberg – Back (9:00)
5. Jonas Steur – Why Work When You Can Play (Original Mix) (6:59)
6. Myon – Albion (Mark Norman Remix) (7:32)
7. Mike Foyle – Pandora (the Blizzard Remix) (9:37)
8. Arnej – The Always Come Back (M.I.K.E. Remix) (5:27)
9. Nic Chagall – What You Need (Marco V Remix) (4:37)
10. Sultan and Ned Sheppard – Did We (Tyler Michaud Mix) (4:21)
11. Artento Divini – Reflex (4:28)

Password: www.bajateloz.com








Comentarios

Comentarios



Dejá tu comentario!

Comenta! sobre VA – Ibiza 2008 The Islands Essentials ↓